<?xml version="1.0" standalone="no"?>
<!DOCTYPE svg PUBLIC "-//W3C//DTD SVG 1.1//EN" "http://www.w3.org/Graphics/SVG/1.1/DTD/svg11.dtd" >
<svg xmlns="http://www.w3.org/2000/svg">
<metadata>Generated by IcoMoon</metadata>
<defs>
<font id="icomoon" horiz-adv-x="1024">
<font-face units-per-em="1024" ascent="960" descent="-64" />
<missing-glyph horiz-adv-x="1024" />
<glyph unicode="&#x20;" horiz-adv-x="512" d="" />
<glyph unicode="&#xe900;" glyph-name="facebook" d="M273.92 416h112.32v-463.36c0-9.19 7.45-16.64 16.64-16.64v0h190.4c9.19 0 16.64 7.45 16.64 16.64v0 459.84h128c8.426 0.109 15.334 6.464 16.312 14.641l0.008 0.079 19.52 170.24c0.071 0.577 0.111 1.244 0.111 1.921 0 9.117-7.331 16.521-16.42 16.639h-149.451v106.24c0 32 17.28 48.32 51.52 48.32h96c9.19 0 16.64 7.45 16.64 16.64v0 156.16c0.001 0.059 0.001 0.128 0.001 0.198 0 8.287-6.057 15.159-13.986 16.43l-0.095 0.013h-140.16c-64.461-0.43-123.192-24.618-167.95-64.235l0.27 0.235c-36.978-32.43-60.196-79.771-60.196-132.535 0-8.445 0.595-16.751 1.745-24.879l-0.108 0.934v-124.8h-117.76c-9.19 0-16.64-7.45-16.64-16.64v0-168c1.283-8.024 8.155-14.081 16.442-14.081 0.070 0 0.139 0 0.208 0.001h-0.011z" />
<glyph unicode="&#xe901;" glyph-name="flickr" d="M453.486 440.686c0-125.227-101.516-226.743-226.743-226.743s-226.743 101.516-226.743 226.743c0 125.227 101.516 226.743 226.743 226.743v0c125.227 0 226.743-101.516 226.743-226.743v0zM1024 440.686c0-125.227-101.516-226.743-226.743-226.743s-226.743 101.516-226.743 226.743c0 125.227 101.516 226.743 226.743 226.743v0c125.227 0 226.743-101.516 226.743-226.743v0z" />
<glyph unicode="&#xe902;" glyph-name="google-plus" d="M782.629 268.8h43.886c12.119 0 21.943 9.824 21.943 21.943v0 153.6h153.6c12.119 0 21.943 9.824 21.943 21.943v0 43.886c0 12.119-9.824 21.943-21.943 21.943v0h-153.6v153.6c0 12.119-9.824 21.943-21.943 21.943v0h-43.886c-12.119 0-21.943-9.824-21.943-21.943v0-153.6h-153.6c-12.119 0-21.943-9.824-21.943-21.943v0-43.886c0-12.119 9.824-21.943 21.943-21.943v0h153.6v-153.6c0-12.119 9.824-21.943 21.943-21.943v0zM175.543-1.829c37.006-8.443 79.804-13.726 123.68-14.618l0.663-0.011c39.341 0.852 77.042 6.137 113.159 15.376l-3.445-0.747c109.714 32.914 179.2 113.371 179.2 204.8s-29.257 138.971-106.057 193.829-62.171 54.857-62.171 65.829 3.657 29.257 43.886 62.171c49.97 35.334 82.595 92.332 84.11 157.024l0.004 0.233c0.146 2.87 0.23 6.232 0.23 9.613 0 47.74-16.632 91.596-44.417 126.089l0.302-0.387h36.571l58.514 43.886c5.383 4.044 8.828 10.416 8.828 17.592 0 2.882-0.556 5.634-1.566 8.156l0.052-0.148c0 7.314-10.971 14.629-18.286 14.629h-270.629c-32.99-1.119-64.305-6.387-94.044-15.302l2.615 0.673c-98.743-36.571-168.229-120.686-168.229-208.457 0-0.037 0-0.080 0-0.124 0-119.167 96.604-215.771 215.771-215.771 2.572 0 5.134 0.045 7.684 0.134l-0.37-0.010c-2.362-7.731-3.722-16.617-3.722-25.82 0-1.209 0.023-2.412 0.070-3.609l-0.005 0.172c0.298-18.951 5.7-36.581 14.884-51.652l-0.256 0.452h-3.657c-120.686 0-230.4-58.514-274.286-146.286-9.242-20.176-14.631-43.768-14.631-68.619 0-0.305 0.001-0.609 0.002-0.913v0.047c1.028-24.29 7.68-46.816 18.676-66.594l-0.39 0.765c25.6-47.543 80.457-80.457 157.257-102.4zM197.486 685.714c-1.342 7.627-2.109 16.408-2.109 25.368 0 32.948 10.374 63.472 28.033 88.486l-0.324-0.483c14.024 14.561 33.202 24.071 54.589 25.585l0.268 0.015h3.657c58.514-3.657 117.029-69.486 128-149.943 1.929-8.681 3.034-18.652 3.034-28.88 0-31.931-10.769-61.347-28.874-84.814l0.24 0.323c-12.154-15.668-30.985-25.656-52.149-25.656-0.952 0-1.9 0.020-2.842 0.060l0.135-0.005h-3.657c-58.514 0-117.029 69.486-128 149.943zM314.514 312.686h3.657c2.464 0.126 5.35 0.198 8.253 0.198 17.934 0 35.226-2.746 51.479-7.842l-1.218 0.329 18.286-10.971c40.229-29.257 69.486-51.2 76.8-80.457 2.388-5.479 3.777-11.863 3.777-18.571 0-1.187-0.043-2.363-0.129-3.528l0.009 0.156q0-120.686-175.543-120.686c-91.429 0-160.914 54.857-160.914 124.343s84.114 117.029 175.543 117.029z" />
<glyph unicode="&#xe903;" glyph-name="instagram" d="M516.16 827.52c123.52 0 138.24 0 186.88-2.56 31.009-0.381 60.541-6.216 87.839-16.587l-1.759 0.587c20.828-7.826 38.57-19.601 53.088-34.527l0.032-0.033c14.994-14.635 26.776-32.488 34.236-52.45l0.324-0.99c9.784-25.54 15.619-55.072 15.998-85.918l0.002-0.162c2.24-48.64 2.56-64 2.56-186.88s0-138.24-2.56-186.88c-0.381-31.009-6.216-60.541-16.587-87.839l0.587 1.759c-15.917-40.39-47.29-71.763-86.642-87.318l-1.038-0.362c-25.54-9.784-55.072-15.619-85.918-15.998l-0.162-0.002c-48.64-2.24-64-2.56-186.88-2.56s-138.24 0-186.88 2.56c-31.009 0.381-60.541 6.216-87.839 16.587l1.759-0.587c-20.828 7.826-38.57 19.601-53.088 34.527l-0.032 0.033c-14.959 14.55-26.734 32.292-34.233 52.133l-0.327 0.987c-9.784 25.54-15.619 55.072-15.998 85.918l-0.002 0.162c-2.24 48.64-2.56 64-2.56 186.88s0 138.24 2.56 186.88c0.381 31.009 6.216 60.541 16.587 87.839l-0.587-1.759c7.733 20.81 19.402 38.551 34.218 53.099l0.022 0.021c14.635 14.994 32.488 26.776 52.45 34.236l0.99 0.324c25.54 9.784 55.072 15.619 85.918 15.998l0.162 0.002c48.64 2.24 64 2.56 186.88 2.56zM516.16 910.72c-125.76 0-141.44 0-192-2.88-40.549-0.811-79.038-8.605-114.648-22.222l2.328 0.782c-31.741-12.696-58.737-31.166-80.88-54.316l-0.080-0.084c-22.868-22.277-41.022-49.27-52.906-79.422l-0.534-1.538c-12.692-32.883-20.472-70.91-21.432-110.628l-0.008-0.412c-2.24-49.28-2.88-64-2.88-192s0-141.44 2.88-192c0.811-40.549 8.605-79.038 22.222-114.648l-0.782 2.328c12.575-31.193 30.702-57.743 53.372-79.615l0.068-0.065c22.477-23.334 49.806-41.824 80.381-53.866l1.539-0.534c33.282-12.835 71.771-20.629 111.975-21.435l0.345-0.005c49.28-2.24 64-2.88 192-2.88s141.44 0 192 2.88c40.549 0.811 79.038 8.605 114.648 22.222l-2.328-0.782c62.364 24.556 110.804 72.996 134.802 133.758l0.558 1.602c11.996 33.049 19.015 71.196 19.2 110.957v0.083c2.24 49.28 2.88 64 2.88 192s0 141.44-2.88 192c-0.811 40.549-8.605 79.038-22.222 114.648l0.782-2.328c-12.575 31.193-30.702 57.743-53.372 79.615l-0.068 0.065c-22.477 23.334-49.806 41.824-80.381 53.866l-1.539 0.534c-33.282 12.835-71.771 20.629-111.975 21.435l-0.345 0.005c-49.28 2.24-64 2.88-192 2.88zM516.16 685.76c-0.095 0-0.208 0-0.32 0-131.311 0-237.76-106.449-237.76-237.76s106.449-237.76 237.76-237.76c131.311 0 237.76 106.449 237.76 237.76v0c0 0 0 0 0 0 0 131.199-106.266 237.577-237.422 237.76h-0.018zM516.16 293.76c-85.184 0-154.24 69.056-154.24 154.24s69.056 154.24 154.24 154.24c85.184 0 154.24-69.056 154.24-154.24v0c0-85.184-69.056-154.24-154.24-154.24v0zM818.56 695.040c0-30.751-24.929-55.68-55.68-55.68s-55.68 24.929-55.68 55.68c0 30.751 24.929 55.68 55.68 55.68s55.68-24.929 55.68-55.68z" />
<glyph unicode="&#xe904;" glyph-name="linkedin" d="M263.36 804.8c0.001-0.192 0.002-0.418 0.002-0.645 0-54.433-44.127-98.56-98.56-98.56-2.817 0-5.606 0.118-8.362 0.35l0.36-0.024c-2.026-0.152-4.388-0.239-6.771-0.239-53.019 0-96 42.981-96 96 0 1.097 0.018 2.189 0.055 3.277l-0.004-0.158c-0.003 0.288-0.005 0.627-0.005 0.968 0 54.080 43.84 97.92 97.92 97.92 2.818 0 5.607-0.119 8.365-0.352l-0.36 0.025c1.724 0.109 3.738 0.171 5.767 0.171 53.903 0 97.6-43.697 97.6-97.6 0-0.398-0.002-0.794-0.007-1.191l0.001 0.060zM59.2-7.36v635.2h196.8v-635.2zM375.040 425.28c0 79.36-2.56 145.6-5.12 202.56h171.52l9.28-88.32h3.84c41.405 62.29 111.286 102.787 190.627 102.787 1.946 0 3.885-0.024 5.819-0.073l-0.286 0.006c129.92 0 227.52-87.040 227.52-274.24v-375.36h-197.76v352c0 81.92-28.48 137.6-100.16 137.6-46.986-0.622-86.712-31.020-101.212-73.157l-0.228-0.763c-4.159-12.738-6.557-27.396-6.557-42.614 0-2.344 0.057-4.676 0.169-6.992l-0.013 0.327v-366.4h-197.44z" />
<glyph unicode="&#xe905;" glyph-name="pinterest" d="M277.943-56.686c-0.143-0.549-0.225-1.179-0.225-1.829 0-4.164 3.376-7.539 7.539-7.539 3.515 0 6.467 2.405 7.303 5.659l0.011 0.052c45.185 53.797 81.281 117.020 104.836 186.052l1.221 4.119 40.229 164.571c30.718-44.509 81.441-73.305 138.89-73.305 2.601 0 5.189 0.059 7.761 0.176l-0.365-0.013c186.514 0 314.514 171.886 314.514 402.286 0 175.543-146.286 336.457-369.371 336.457-281.6 0-420.571-201.143-420.571-365.714 0-102.4 36.571-193.829 120.686-226.743 2.395-0.977 5.175-1.544 8.086-1.544 10.066 0 18.549 6.778 21.134 16.019l0.037 0.154c2.126 17.715 5.98 33.794 11.458 49.1l-0.486-1.557c1.428 3.329 2.258 7.202 2.258 11.27 0 8.566-3.682 16.273-9.549 21.624l-0.023 0.021c-25.113 29.216-40.403 67.507-40.403 109.369 0 2.694 0.063 5.373 0.189 8.036l-0.014-0.376c-0.017 1.152-0.027 2.512-0.027 3.875 0 153.504 124.439 277.943 277.943 277.943 3.868 0 7.717-0.079 11.547-0.236l-0.549 0.018c157.257 0 245.029-98.743 245.029-226.743s-73.143-314.514-186.514-314.514c-0.799-0.025-1.739-0.039-2.682-0.039-50.495 0-91.429 40.934-91.429 91.429 0 7.805 0.978 15.382 2.818 22.615l-0.136-0.633c18.286 76.8 51.2 157.257 51.2 208.457s-25.6 91.429-80.457 91.429-113.371-65.829-113.371-153.6c-0.012-0.871-0.019-1.9-0.019-2.93 0-31.996 6.736-62.418 18.867-89.927l-0.562 1.428-73.143-321.829c-7.484-36.624-11.768-78.718-11.768-121.812 0-35.76 2.95-70.83 8.619-104.982l-0.508 3.708z" />
<glyph unicode="&#xe906;" glyph-name="tumblr" d="M336.457 74.971c13.18-27.743 31.73-50.975 54.473-69.189l0.384-0.297c25.507-22.582 56.046-40.126 89.667-50.721l1.762-0.479c32.235-11.59 69.43-18.289 108.19-18.289 0.536 0 1.072 0.001 1.607 0.004h-0.083c1.438-0.014 3.138-0.022 4.839-0.022 38.42 0 75.905 4.003 112.061 11.615l-3.529-0.622 120.686 43.886v160.914c-43.096-29.433-96.24-47.145-153.499-47.542l-0.101-0.001c-2.221-0.115-4.822-0.18-7.438-0.18-26.754 0-51.911 6.84-73.816 18.867l0.797-0.401c-15.993 10.89-28.525 25.772-36.312 43.235l-0.259 0.651c-5.414 23.938-8.516 51.43-8.516 79.646 0 10.583 0.436 21.065 1.292 31.427l-0.090-1.358v263.314h237.714v182.857h-237.714v237.714h-146.286c-4.404-48.493-16.090-93.146-34.001-134.473l1.087 2.816c-18.607-34.076-41.788-63.088-69.166-87.492l-0.32-0.28c-33.505-23.569-72.46-42.347-114.323-54.202l-2.706-0.655v-146.286h138.971v-358.4c-0.308-4.864-0.483-10.547-0.483-16.272 0-32.161 5.535-63.029 15.705-91.704l-0.593 1.918z" />
<glyph unicode="&#xe907;" glyph-name="twitter" d="M992 744.32c-32.863-14.732-71.020-25.928-110.929-31.72l-2.351-0.28c40.36 24.14 70.64 61.583 85.060 106.161l0.38 1.359c-36.158-21.074-78.101-37.553-122.6-47.166l-2.84-0.514c-34.162 39.3-84.233 64.003-140.073 64.003-0.368 0-0.736-0.001-1.103-0.003h0.057c-107.117-0.905-193.602-87.949-193.602-195.193 0-0.34 0.001-0.679 0.003-1.019v0.052c-0.001-0.243-0.002-0.53-0.002-0.818 0-15.327 2.222-30.135 6.361-44.12l-0.279 1.098c-164.054 7.032-308.693 84.556-405.294 202.847l-0.786 0.993c-16.092-28.608-25.579-62.794-25.6-99.194v-0.006c0-0.135-0.001-0.294-0.001-0.453 0-67.72 34.541-127.372 86.967-162.299l0.714-0.447c-32.988 1.994-63.529 10.639-90.903 24.604l1.303-0.604v-1.92c0.247-94.374 66.991-173.089 155.839-191.775l1.281-0.225c-15.319-3.864-32.905-6.082-51.009-6.082-0.292 0-0.584 0.001-0.876 0.002h0.045c-13.577 0.327-26.595 1.71-39.268 4.074l1.508-0.234c25.695-78.389 97.699-134.215 182.905-135.359l0.135-0.001c-66.369-51.869-150.933-83.26-242.821-83.52h-0.059c-2.613-0.073-5.688-0.114-8.773-0.114-13.031 0-25.888 0.739-38.534 2.177l1.548-0.143c84.524-54.984 187.937-87.682 298.987-87.682 0.525 0 1.050 0.001 1.574 0.002h-0.081c360.32-0.96 557.12 297.6 557.12 556.48v25.6c37.856 28.088 69.726 61.69 95.089 99.977l0.911 1.463z" />
<glyph unicode="&#xe908;" glyph-name="youtube" d="M781.899 730.449h-539.795c-76.249 0-138.087-61.838-138.087-138.087v-288.728c0-76.249 61.838-138.087 138.087-138.087h539.795c76.249 0 138.087 61.838 138.087 138.087v288.728c0 76.249-61.838 138.087-138.087 138.087zM546.52 385.235l-122.394-62.765v251.067l244.792-125.536z" />
<glyph unicode="&#xe909;" glyph-name="person-1" d="M512.001 959.986c141.425 0 255.992-114.567 255.992-255.992s-114.567-255.992-255.992-255.992c-141.425 0-255.992 114.567-255.992 255.992s114.567 255.992 255.992 255.992zM512.001 857.589c-84.873 0-153.596-68.723-153.596-153.596s68.723-153.596 153.596-153.596c84.873 0 153.596 68.723 153.596 153.596s-68.723 153.596-153.596 153.596v0zM102.413-63.98c-28.276 0-51.198 22.92-51.198 51.194h-0.002v102.397c0 147.102 217.387 243.38 420.436 254.841 13.537 0.764 27.010 1.151 40.35 1.151 0.001 0 0.003 0 0.004 0 13.339 0 26.811-0.387 40.346-1.151 14.885-0.84 29.847-2.136 44.795-3.875 188.959-21.974 375.645-114.647 375.645-250.966v-102.397h-0.002c0-28.275-22.923-51.194-51.198-51.194s-51.198 22.92-51.198 51.194v101.938c-0.001 0.153-0.002 0.306-0.002 0.459 0 53.73-101.672 109.571-218.857 136.731-45.855 10.628-94.086 16.865-139.53 16.865-45.57 0-93.944-6.271-139.913-16.953-117.025-27.193-218.476-82.971-218.476-136.643 0-0.154-0.001-0.308-0.002-0.462v-101.935c0-28.275-22.923-51.194-51.198-51.194z" />
<glyph unicode="&#xe916;" glyph-name="plus" d="M1023.97 504.878h-455.099v455.099h-113.757v-455.099h-455.099v-113.793h455.099v-455.062h113.757v455.062h455.099z" />
<glyph unicode="&#xe917;" glyph-name="printer" d="M796.421 163.572v-227.55h-568.855v227.55h568.855zM767.972 959.977c15.654 0 28.448-12.794 28.448-28.448v0-312.857h199.101c15.654 0 28.448-12.794 28.448-28.448v0-511.959c0-15.654-12.794-28.448-28.448-28.448v0h-142.205v142.205c0 15.617-12.831 28.412-28.448 28.412v0h-625.752c-15.617 0-28.448-12.794-28.448-28.412v0-142.205h-142.205c-15.654 0-28.448 12.794-28.448 28.448v0 511.959c0 15.654 12.794 28.448 28.448 28.448v0h199.101v312.857c0 15.654 12.794 28.448 28.448 28.448v0zM910.177 504.915h-113.793v-56.896h113.793v56.896zM739.524 903.080h-455.099v-284.409h455.099v284.409z" />
<glyph unicode="&#xe91d;" glyph-name="refresh" d="M341.323 334.225l-137.806-137.843c74.494-91.21 186.931-146.604 308.46-146.604 109.797 0 209.33 44.689 281.44 116.8 46.155 46.119 80.836 103.565 100.010 167.647v0h117.35c-21.776-95.5-69.948-181.101-136.926-248.079-92.677-92.75-220.695-150.123-361.873-150.123-152.251 0-293.649 67.455-389.406 179.414v0l-122.555-122.518v341.305h341.308zM511.972 959.977c152.287 0 293.685-67.455 389.442-179.451v0l122.555 122.555v-341.305h-341.308l137.806 137.843c-74.494 91.21-186.931 146.604-308.496 146.604-109.761 0-209.294-44.689-281.404-116.8-46.559-46.522-81.422-102.978-100.45-167.647v0h-117.020c21.703 95.793 69.948 180.991 137.036 248.079 92.677 92.714 220.695 150.123 361.837 150.123z" />
<glyph unicode="&#xe920;" glyph-name="repeat" d="M1023.97 511.982c0-247.004-178.646-447.982-398.205-447.982v0h-284.411v-127.978l-170.654 191.986 170.654 191.986v-127.978h284.411c156.833 0 284.448 143.526 284.448 319.964v0zM682.669 959.977l170.654-191.986-170.654-192.028v128.018h-284.448c-156.833 0-284.411-143.526-284.411-319.964v0h-113.794c0 247.004 178.646 447.982 398.205 447.982v0h284.448v127.978z" />
<glyph unicode="&#xe921;" glyph-name="return" d="M691.191 732.442h-486.388v170.661l-204.803-227.525 204.803-227.561v170.661h486.388c127.065 0 230.408-114.826 230.408-256.011s-103.342-256.011-230.408-256.011h-486.388v-113.762h486.388c183.522 0 332.794 165.896 332.794 369.774 0 203.914-149.272 369.774-332.794 369.774z" />
<glyph unicode="&#xe92b;" glyph-name="rocket" d="M788.789 906.898c58.436 58.473 146.127 68.701 212.444 30.354 38.419-66.282 28.044-153.937-30.318-212.41v0l-402.048-402.053v-159.216l-227.548-227.551 96.966 290.79c-44.175-11.768-91.429-6.599-131.096 16.35-23.022 39.703-28.155 86.995-16.314 131.097v0l-290.859-96.93 227.548 227.551h159.25zM172.802 220.439l10.64-0.676c24.782-2.75 48.794-13.6 67.784-32.555 35.047-35.084 42.306-87.288 22.032-129.631-3.079-6.415-6.819-12.574-11.144-18.477-3.336-4.4-6.855-8.762-10.888-12.794-7.002-6.965-14.737-12.758-22.913-17.56-9.458-5.535-19.466-9.642-29.841-12.208-2.639-0.477-5.206-1.064-7.809-1.723-5.975-1.539-11.878-3.593-17.596-6.195-10.851-4.876-21.006-11.694-30.061-20.383v0l-1.43-1.283c-2.419-2.419-4.729-5.022-6.892-7.625 0.037 2.126 0.073 4.289 0.257 6.379 1.026 10.559 3.519 21.007 7.662 30.978 5.169 12.574 12.867 24.416 23.133 34.644 2.75 2.75 5.315 5.646 7.662 8.578-13.271 2.932-27.055 3.226-40.436 0.99-2.456-0.404-4.913-0.917-7.332-1.503-11.768-2.859-23.242-7.625-33.728-14.517-5.902-3.923-11.512-8.469-16.681-13.638-2.75-2.786-5.279-5.609-7.662-8.578-3.665-4.546-6.782-9.275-9.531-14.188-0.624-1.064-1.32-2.090-1.87-3.189-0.404 2.126-0.697 4.216-0.99 6.306-0.697 4.986-1.137 9.971-1.1 14.957 0.073 14.115 2.932 28.265 8.578 41.463 1.539 3.593 3.263 7.076 5.206 10.521 4.656 8.212 10.411 16.094 17.45 23.096 17.743 17.744 40.216 27.862 63.385 30.465-26.285 12.354-57.959 9.311-81.494-9.202-0.99-0.733-1.943-1.577-2.896-2.419-2.163-1.686-4.436-3.263-6.782-4.656-11.732-7.223-25.075-10.668-38.383-10.412-2.199 0.037-4.253 0.184-6.342 0.404 1.503 0.844 3.006 1.723 4.436 2.639 7.405 4.546 14.407 9.898 20.786 16.314 10.595 10.595 18.623 22.802 24.159 35.817 1.539 3.556 2.859 7.185 3.996 10.815 4.839 11.365 11.658 21.996 20.31 31.602 1.32 1.43 2.493 2.859 3.849 4.216 9.165 9.165 19.54 16.35 30.574 21.74 19.613 9.531 41.316 13.161 62.541 10.815zM853.31 846.225c-31.454 0-56.896-25.443-56.896-56.896s25.441-56.896 56.896-56.896c31.418 0 56.896 25.443 56.896 56.896s-25.479 56.896-56.896 56.896z" />
<glyph unicode="&#xe92e;" glyph-name="rotate-clockwise" d="M1023.97 561.775h-341.305l137.805 137.843c-74.494 91.247-186.93 146.604-308.459 146.604-109.761 0-209.33-44.652-281.439-116.8-72.111-72.111-116.762-171.642-116.762-281.403 0-219.594 178.645-398.202 398.202-398.202 108.22 0 208.413 44.102 281.293 116.836l80.396-80.359c-93.776-93.52-222.601-150.27-361.689-150.27-282.356 0-511.996 229.676-511.996 511.996 0 141.142 57.447 269.159 150.123 361.835 92.714 92.714 220.694 150.123 361.872 150.123 152.249 0 293.648-67.455 389.404-179.451l122.555 122.591v-341.343z" />
<glyph unicode="&#xe936;" glyph-name="rotate-counter" d="M0.016 561.775h341.305l-137.805 137.843c74.494 91.247 186.93 146.604 308.459 146.604 109.761 0 209.33-44.652 281.439-116.8 72.111-72.111 116.762-171.642 116.762-281.403 0-219.594-178.645-398.202-398.202-398.202-108.22 0-208.413 44.102-281.293 116.836l-80.396-80.359c93.776-93.52 222.601-150.27 361.689-150.27 282.356 0 511.996 229.676 511.996 511.996 0 141.142-57.447 269.159-150.123 361.835-92.714 92.714-220.694 150.123-361.872 150.123-152.249 0-293.648-67.455-389.404-179.451l-122.555 122.591v-341.343z" />
<glyph unicode="&#xe93f;" glyph-name="scissors" d="M199.117 49.779c-47.072 0-85.345 38.273-85.345 85.345 0 47.035 38.273 85.309 85.345 85.309 47.035 0 85.309-38.273 85.309-85.309 0-47.072-38.273-85.345-85.309-85.345v0zM113.773 760.839c0 47.072 38.273 85.345 85.345 85.345 47.035 0 85.309-38.273 85.309-85.345 0-47.035-38.273-85.309-85.309-85.309-47.072 0-85.345 38.273-85.345 85.309v0zM1023.97 959.977h-80.432l-431.563-431.563-137.769 137.769c15.288 28.191 24.012 60.416 24.012 94.656 0 109.797-89.304 199.138-199.101 199.138s-199.101-89.341-199.101-199.138c0-109.761 89.304-199.064 199.101-199.064 34.241 0 66.465 8.689 94.693 23.975l137.732-137.769-137.769-137.769c-28.191 15.288-60.416 24.012-94.656 24.012-109.797 0-199.101-89.341-199.101-199.101 0-109.797 89.304-199.101 199.101-199.101s199.101 89.304 199.101 199.101c0 34.241-8.725 66.501-24.012 94.656l137.769 137.769 431.563-431.527h80.432v80.432l-431.527 431.527 431.527 431.527v80.469z" />
<glyph unicode="&#xe940;" glyph-name="search" d="M113.809 504.878c0 188.213 153.093 341.305 341.305 341.305s341.343-153.093 341.343-341.305c0-188.213-153.129-341.343-341.343-341.343s-341.305 153.129-341.305 341.343v0zM1023.97 16.455l-209.806 209.806c59.975 77.060 96.050 173.623 96.050 278.618 0 250.939-204.16 455.099-455.099 455.099s-455.099-204.16-455.099-455.099c0-250.939 204.16-455.099 455.099-455.099 104.995 0 201.521 36.111 278.618 96.050l209.806-209.806 80.432 80.432z" />
<glyph unicode="&#xe943;" glyph-name="send" d="M1023.972 448l-1023.959 455.093 76.809-341.301 511.963-113.791-511.963-113.791-76.809-341.301z" />
<glyph unicode="&#xe949;" glyph-name="share" d="M791.998 21.324c-46.374 0-84.015 38.2-84.015 85.346 0 47.109 37.64 85.31 84.015 85.31s84.015-38.2 84.015-85.31c0-47.146-37.64-85.346-84.015-85.346zM232.010 362.672c-46.41 0-84.015 38.2-84.015 85.31s37.604 85.346 84.015 85.346c46.374 0 84.015-38.237 84.015-85.346s-37.64-85.31-84.015-85.31zM791.998 874.639c46.374 0 84.015-38.237 84.015-85.346s-37.64-85.31-84.015-85.31c-46.374 0-84.015 38.2-84.015 85.31s37.64 85.346 84.015 85.346zM791.998 277.326c-40.636 0-77.951-14.701-107.003-39.117l-288.349 175.752c2.201 10.999 3.356 22.4 3.356 34.021 0 11.658-1.155 23.023-3.356 34.021l288.349 175.752c29.051-24.416 66.367-39.117 107.003-39.117 92.784 0 167.993 76.401 167.993 170.656s-75.209 170.692-167.993 170.692c-92.784 0-167.993-76.437-167.993-170.692 0-11.621 1.155-23.023 3.356-34.021l-288.349-175.714c-29.051 24.416-66.367 39.081-107.003 39.081-92.784 0-167.993-76.401-167.993-170.656s75.209-170.656 167.993-170.656c40.636 0 77.951 14.701 107.003 39.117l288.349-175.752c-2.201-10.999-3.356-22.4-3.356-34.021 0-94.255 75.209-170.656 167.993-170.656s167.993 76.401 167.993 170.656c0 94.218-75.209 170.656-167.993 170.656z" />
<glyph unicode="&#xe94b;" glyph-name="sheild" d="M847.967 392.237c0-188.809-150.701-342.46-335.972-342.46v796.446h335.972v-453.986zM64.008 959.985v-570.021c0-251.392 200.645-453.949 447.987-453.949 247.45 0 447.987 204.83 447.987 456.222v567.748h-895.974z" />
<glyph unicode="&#xe94c;" glyph-name="shuffle" d="M588.078 370.923l51.84-78.491c23.61-35.835 84.651-68.423 128.058-68.423v0h85.348v112.017l170.659-168.026-170.659-167.989v111.981h-85.348c-82.489 0-178.578 51.353-223.451 119.415v0l-24.307 36.773 67.86 102.743zM853.338 895.989l170.622-167.989-170.622-168.026v112.017h-85.348c-43.407 0-104.448-32.588-128.095-68.423v0l-245.742-372.176c-44.947-68.062-140.999-119.379-223.488-119.379v0h-170.659v111.981h170.659c43.407 0 104.448 32.623 128.095 68.423v0l245.742 372.176c44.91 68.062 140.999 119.415 223.488 119.415v0h85.348v111.981zM170.673 783.99c82.415 0 178.541-51.317 223.488-119.379v0l24.269-36.81-67.824-102.743-51.84 78.528c-23.683 35.799-84.724 68.423-128.095 68.423v0h-170.659v111.981z" />
<glyph unicode="&#xe961;" glyph-name="square" d="M895.976 959.977c70.689 0 127.995-57.306 127.995-127.995v-767.966c0-70.689-57.306-127.995-127.995-127.995h-767.966c-70.689 0-127.995 57.306-127.995 127.995v767.966c0 70.689 57.306 127.995 127.995 127.995h767.966zM895.976 831.983h-767.966v-767.966h767.966v767.966z" />
<glyph unicode="&#xe962;" glyph-name="star" d="M511.993 959.977l142.209-398.202h369.767l-312.869-227.55 117.317-398.202-316.425 227.55-316.425-227.55 117.317 398.202-312.869 227.55h369.767z" />
<glyph unicode="&#xe963;" glyph-name="Stopwatch" d="M561.781 959.98l99.535-102.383h-99.535v-105.946c72.526-9.37 138.926-38.868 194.003-82.917v0l69.447 71.467 70.377-72.424-69.48-71.434c52.51-69.355 84.075-156.263 84.075-250.727 0-225.849-178.638-409.596-398.206-409.596s-398.206 183.748-398.206 409.596c0 208.461 152.302 380.693 348.422 406.033v0 105.946h-99.535l99.535 102.383h99.568zM511.997 652.798c-164.684 0-298.638-137.819-298.638-307.18 0-169.427 133.954-307.214 298.638-307.214s298.671 137.786 298.671 307.214c0 169.362-133.987 307.18-298.671 307.18zM561.759 550.392l0.018-116.085c29.753-17.712 49.773-50.808 49.773-88.704 0-56.554-44.588-102.415-99.568-102.415-54.949 0-99.535 45.864-99.535 102.415 0 37.871 19.994 70.949 49.707 88.669l0.039 116.119h99.568z" />
<glyph unicode="&#xe964;" glyph-name="tick-circle" d="M511.975 959.977c282.283 0 511.996-229.676 511.996-511.959s-229.713-511.996-511.996-511.996c-282.283 0-511.959 229.713-511.959 511.996s229.676 511.959 511.959 511.959zM511.975 846.221c-219.558 0-398.202-178.645-398.202-398.202s178.645-398.202 398.202-398.202c219.594 0 398.202 178.645 398.202 398.202s-178.608 398.202-398.202 398.202zM642.4 602.013l80.469-80.432-267.766-267.766-154.009 153.973 80.469 80.432 73.54-73.54 187.297 187.334z" />
<glyph unicode="&#xe969;" glyph-name="tick" d="M354.781 64.015l-354.762 363.357 80.836 82.702 273.927-280.542 588.363 602.454 80.836-82.778z" />
<glyph unicode="&#xe96a;" glyph-name="ticket" d="M0.041 277.325l85.317-85.323c47.135 47.139 123.54 47.139 170.638 0 47.135-47.139 47.135-123.55 0-170.65l85.317-85.323 477.825 477.861-341.312 341.338-477.784-477.902zM511.992 789.314l341.312-341.338 170.638 170.65-85.317 85.323c-47.135-47.139-123.54-47.139-170.638 0-47.135 47.139-47.135 123.55 0 170.65l-85.363 85.37-170.632-170.657zM332.822 507.7l111.477-47.47 92.812 82.118-13.056-121.86 104.501-60.811-119.727-28.001-27.999-119.735-60.806 104.51-121.852-13.058 82.111 92.818-47.462 111.49z" />
<glyph unicode="&#xe96b;" glyph-name="trolley" d="M370.691 163.574c62.987 0 114.068-50.958 114.068-113.794 0-62.799-51.081-113.757-114.068-113.757s-114.068 50.958-114.068 113.757c0 62.836 51.081 113.794 114.068 113.794zM798.362 163.574c62.987 0 114.068-50.958 114.068-113.794 0-62.799-51.081-113.757-114.068-113.757s-114.068 50.958-114.068 113.757c0 62.836 51.081 113.794 114.068 113.794zM142.601 959.977c40.717 0 79.194-28.119 91.468-66.831v0l14.993-46.925h713.257c21.645 0 41.269-10.741 52.514-28.668 11.172-18 12.164-40.289 2.609-59.683v0l-164.892-328.953c-11.098-22.473-35.83-37.797-61.297-37.797v0h-396.997l18.117-56.896h500.041v-113.757h-513.198c-40.755 0-79.23 28.119-91.505 66.831v0l-178.305 558.924h-129.393v113.757z" />
<glyph unicode="&#xe96c;" glyph-name="trophy" d="M910.183 618.636c0-58.51-35.56-108.808-86.189-130.621 0.293 5.608 0.844 11.181 0.844 16.864v227.551h85.345v-113.794zM113.771 618.636v113.794h85.345v-227.551c0-5.682 0.55-11.254 0.844-16.864-50.629 21.813-86.189 72.111-86.189 130.621v0zM824.837 846.187v85.345c0 15.691-12.721 28.448-28.448 28.448h-568.859c-15.691 0-28.412-12.758-28.412-28.448v-85.345h-199.103v-227.551c0-133.444 102.65-243.168 233.087-254.827 43.406-85.53 124.829-148.439 221.978-166.365v-147.669l-113.757-113.757h341.308l-113.757 113.757v147.669c97.15 17.927 178.573 80.836 222.015 166.365 130.437 11.659 233.087 121.383 233.087 254.827v227.551h-199.139z" />
<glyph unicode="&#xe96d;" glyph-name="unlock" d="M512.012 217.601c-41.218 0-74.674 34.38-74.674 76.811 0 42.397 33.456 76.778 74.674 76.778 41.251 0 74.674-34.38 74.674-76.778 0-42.431-33.424-76.811-74.674-76.811v0zM760.894 703.969c0 141.182-111.659 256.002-248.883 256.002s-248.851-114.82-248.851-256.002v-153.588h-124.458c-13.664 0-24.892-11.515-24.892-25.57v-179.224c0-226.209 178.314-409.557 398.199-409.557 219.918 0 398.199 183.349 398.199 409.557v179.224c0 14.056-11.227 25.57-24.892 25.57h-522.624v153.588c0 84.729 66.976 153.588 149.317 153.588s149.317-68.858 149.317-153.588h99.566z" />
<glyph unicode="&#xe96e;" glyph-name="user" d="M989.656 86.284c-44.798 61.222-272.312 35.816-307.029 105.764-68.884 138.72-40.766 112.949 4.106 147.299 42.122 32.26 40.143 117.275 65.915 147.446 26.138 30.648 38.199 118.448 28.339 151.515-13.014 43.845-33.031 20.017-36.037 53.083-6.562 71.377 11.474 130.069-28.705 164.785-38.823 33.544-87.397 102.794-166.511 103.793-27.531 0.321-58.802-7.892-94.656-28.458-170.653 18.22-169.554-168.745-176.042-240.122-3.043-33.067-23.059-9.238-36.073-53.083-9.824-33.067 2.236-120.868 28.375-151.515 25.772-30.172 23.755-115.185 65.878-147.446 44.872-34.35 73.027-8.578 4.106-147.336-34.717-69.947-262.193-44.505-307.029-105.727-34.277-46.778-34.277-150.268-34.277-150.268h1023.955c0 0 0 103.49-34.314 150.268z" />
<glyph unicode="&#xe96f;" glyph-name="van" d="M361.396 799.997v-122.419h-108.418c-60.251 0-84.306-67.322-93.34-91.829l-30.097-91.829-9.035-0.058c-51.216 0-90.348-39.773-90.348-91.829v-61.239l-30.153 0.058v-122.419h120.444c0-67.322 54.209-122.419 120.444-122.419s120.444 55.098 120.444 122.419h301.14c0-67.322 54.209-122.419 120.444-122.419s120.444 55.098 120.444 122.419h120.444l0.169 581.565h-662.587zM201.82 570.424c9.035 27.548 24.112 61.239 51.216 61.239l108.361-0.058v-137.743h-183.688l24.11 76.562z" />
<glyph unicode="&#xe970;" glyph-name="video" d="M768.015 503.729v119.424c0 13.739-11.548 25.026-25.604 25.026h-132.409l-153.592 150.126h-353.971v-100.106h311.572l51.208-50.020h-439.593c-14.089 0-25.604-11.287-25.604-25.026v-500.431c0-13.771 11.515-25.026 25.604-25.026h716.785c14.056 0 25.604 11.256 25.604 25.026v119.424l255.976-144.45v550.484l-255.976-144.45z" />
<glyph unicode="&#xe971;" glyph-name="volume-high" d="M448.125 895.978v-895.958l-280.059 223.989h-56.022c-61.616 0-112.036 50.415-112.036 112.015v0 223.955c0 61.634 50.427 112.015 112.036 112.015v0h56.022l280.059 223.989zM764.942 764.787c174.695-174.66 174.695-458.879 0-633.573v0l-79.193 79.211c131.022 130.997 131.022 344.157 0 475.186v0zM590.183 646.006c109.151-109.198 109.151-286.816-0.034-396.014v0l-79.227 79.211c65.51 65.494 65.51 172.099 0 237.631v0z" />
<glyph unicode="&#xe972;" glyph-name="volume-low" d="M448.079 895.985v-895.978l-280.052 223.992h-56.020c-61.614 0-111.999 50.416-111.999 112.017v0 223.959c0 61.635 50.385 112.017 111.999 112.017v0h56.020l280.052 223.992zM590.13 646.009c109.148-109.2 109.148-286.82-0.033-396.020v0l-79.191 79.213c65.476 65.495 65.476 172.101-0.033 237.638v0z" />
<glyph unicode="&#xe973;" glyph-name="volume-mute" d="M455.661 899.757v-903.514l-283.582 225.878h-56.929c-62.655 0-115.143 50.838-115.143 112.957v0 225.842c0 62.156 52.488 112.957 115.143 112.957v0h56.929l283.582 225.878zM943.459 671.451l80.53-79.841-144.838-143.598 144.838-143.598-80.53-79.841-144.838 143.598-144.838-143.598-80.567 79.841 144.875 143.598-144.875 143.598 80.567 79.841 144.838-143.598 144.838 143.598z" />
<glyph unicode="&#xe974;" glyph-name="cross-circle" d="M149.779 810.191c199.733 199.733 524.71 199.733 724.417 0.025s199.733-524.71 0-724.442c-199.707-199.707-524.71-199.681-724.417 0.025s-199.707 524.684 0 724.391zM230.258 729.712c-155.33-155.33-155.33-408.102 0-563.432s408.102-155.33 563.432 0c155.357 155.357 155.33 408.102 0 563.432s-408.077 155.357-563.432 0zM431.488 608.977l80.506-80.506 80.506 80.506 80.479-80.479-80.506-80.506 80.506-80.506-80.479-80.479-80.506 80.506-80.506-80.506-80.479 80.479 80.506 80.506-80.506 80.506 80.479 80.479z" />
<glyph unicode="&#xe975;" glyph-name="cross" d="M1023.97 879.545l-80.432 80.432-431.527-431.527-431.527 431.527-80.469-80.432 431.563-431.527-431.563-431.527 80.469-80.469 431.527 431.527 431.527-431.527 80.432 80.469-431.527 431.527z" />
<glyph unicode="&#xe976;" glyph-name="minus-circle" d="M511.993 959.985c282.294 0 511.978-229.676 511.978-511.96s-229.684-511.996-511.978-511.996c-282.294 0-511.978 229.713-511.978 511.996s229.684 511.96 511.978 511.96zM511.993 846.229c-219.565 0-398.217-178.645-398.217-398.203s178.651-398.203 398.217-398.203c219.565 0 398.217 178.645 398.217 398.203s-178.651 398.203-398.217 398.203zM682.664 504.933v-113.793h-341.355v113.793h341.355z" />
<glyph unicode="&#xe977;" glyph-name="plus-circle" d="M511.975 959.977c282.32 0 511.996-229.676 511.996-511.959s-229.676-511.996-511.996-511.996c-282.283 0-511.959 229.713-511.959 511.996s229.676 511.959 511.959 511.959zM511.975 846.221c-219.558 0-398.202-178.645-398.202-398.202s178.645-398.202 398.202-398.202c219.594 0 398.202 178.645 398.202 398.202s-178.608 398.202-398.202 398.202zM568.864 618.675v-113.793h113.793v-113.757h-113.793v-113.793h-113.757v113.793h-113.793v113.757h113.793v113.793h113.757z" />
<glyph unicode="&#xe978;" glyph-name="user-add" d="M439.813 846.208c63.286-0.777 102.187-54.637 133.204-80.717 32.138-27.010 17.751-72.69 22.965-128.154 2.408-25.76 18.411-7.217 28.838-41.318 7.886-25.695-1.749-94.023-22.701-117.857-20.622-23.481-19.006-89.596-52.694-114.681-35.933-26.721-58.402-6.672-3.3-114.553 27.782-54.437 209.786-34.677 245.62-82.282 24.402-32.335 27.114-99.522 27.415-114.052l0.037-2.81h-819.184l0.047 2.81c0.318 14.531 3.004 81.717 27.406 114.052 35.834 47.605 217.838 27.845 245.62 82.218 55.136 107.945 32.599 87.895-3.3 114.617-33.689 25.085-32.072 91.199-52.694 114.681-20.92 23.835-30.587 92.162-22.701 117.857 10.426 34.099 26.43 15.558 28.838 41.318 5.247 55.464 4.322 200.908 140.858 186.73 28.674 16.007 53.684 22.391 75.725 22.141zM921.61 597.328v-99.572h102.386v-99.572h-102.386v-99.54h-102.419v99.54h-102.386v99.572h102.386v99.572h102.419z" />
<glyph unicode="&#xe979;" glyph-name="alarm" d="M569.149 959.977v-117.715c225.221-28.155 400.122-219.521 400.122-451.14 0-250.939-205.145-455.099-457.292-455.099s-457.292 204.16-457.292 455.099c0 231.619 174.938 422.985 400.159 451.14v0 117.715h114.305zM511.978 732.428c-189.121 0-342.951-153.129-342.951-341.305 0-188.213 153.83-341.343 342.951-341.343s342.988 153.129 342.988 341.343c0 188.176-153.868 341.305-342.988 341.305zM569.142 618.638v-170.653h114.341v-113.757h-228.646v284.409h114.305zM114.321 957.517l80.82-80.432-114.305-113.793-80.82 80.469 114.305 113.757zM909.628 957.51l114.341-113.757-80.82-80.432-114.341 113.757 80.82 80.432z" />
<glyph unicode="&#xe97a;" glyph-name="align-centre" d="M107.463 150.875v-118.865h843.203v118.865h-843.203zM0.010 507.433v-118.865h1023.978v118.865h-1023.978zM254.107 863.991v-118.865h549.915v118.865h-549.915z" />
<glyph unicode="&#xe97b;" glyph-name="align-justify" d="M1023.973 150.886v-118.868h-1023.959v118.868h1023.959zM1023.973 507.415v-118.868h-1023.959v118.868h1023.959zM1023.973 863.984v-118.868h-1023.959v118.868h1023.959z" />
<glyph unicode="&#xe97c;" glyph-name="align-left" d="M0.050 150.886v-118.868h796.409v118.868h-796.409zM0.013 507.415v-118.868h1023.959v118.868h-1023.959zM0.050 863.984v-118.868h511.961v118.868h-511.961z" />
<glyph unicode="&#xe97d;" glyph-name="align-right" d="M1023.936 150.886v-118.868h-796.409v118.868h796.409zM1023.973 507.415v-118.868h-1023.959v118.868h1023.959zM1023.936 863.984v-118.868h-511.961v118.868h511.961z" />
<glyph unicode="&#xe97e;" glyph-name="arrow-down-left" d="M0.43 906.505l152.464-0.070-0.313-710.054 763.608 763.608 107.802-107.802-763.608-763.608 710.020 0.347 0.070-152.464-970.459-0.451z" />
<glyph unicode="&#xe97f;" glyph-name="arrow-down-right" d="M1023.547 906.492l-152.46-0.070 0.313-710.033-763.586 763.586-107.799-107.799 763.586-763.586-709.999 0.347-0.070-152.46 970.431-0.451z" />
<glyph unicode="&#xe980;" glyph-name="arrow-down" d="M1023.97 448.44l-80.505 80.43-374.593-374.91v806.018h-113.793v-806.018l-374.557 374.91-80.505-80.43 511.959-512.417z" />
<glyph unicode="&#xe981;" glyph-name="arrow-left" d="M512.454-63.981l80.397 80.506-374.927 374.596h806.053v113.757h-806.053l374.927 374.596-80.397 80.506-512.44-512z" />
<glyph unicode="&#xe982;" glyph-name="arrow-right" d="M511.553 959.977l-80.43-80.505 374.91-374.593h-806.018v-113.793h806.018l-374.91-374.557 80.43-80.505 512.417 511.959z" />
<glyph unicode="&#xe983;" glyph-name="arrow-up-left" d="M0.467-10.523l152.431 0.104-0.313 710.082 763.612-763.638 107.767 107.772-763.612 763.638 710.058-0.313 0.104 152.435-970.499 0.417z" />
<glyph unicode="&#xe984;" glyph-name="arrow-up-right" d="M1023.513-10.523l-152.431 0.104 0.313 710.082-763.612-763.638-107.767 107.772 763.612 763.638-710.058-0.313-0.104 152.435 970.499 0.417z" />
<glyph unicode="&#xe985;" glyph-name="arrow-up" d="M0.016 447.542l80.505-80.396 374.593 374.924v-806.047h113.757v806.047l374.593-374.924 80.505 80.396-511.996 512.436z" />
<glyph unicode="&#xe986;" glyph-name="attach" d="M755.768 704.002v-409.59c0-141.149-109.378-255.969-243.798-255.969s-243.767 114.82-243.767 255.969v409.59c0 84.696 65.607 153.588 146.266 153.588s146.266-68.892 146.266-153.588v-409.59c0-28.21-21.869-51.207-48.766-51.207s-48.766 22.997-48.766 51.207v409.59h-97.5v-409.59c0-84.696 65.607-153.588 146.266-153.588 80.689 0 146.266 68.892 146.266 153.588v409.59c0 141.149-109.346 255.969-243.767 255.969s-243.798-114.82-243.798-255.969v-409.59c0-197.603 153.117-358.383 341.299-358.383s341.329 160.78 341.329 358.383v409.59h-97.532z" />
<glyph unicode="&#xe987;" glyph-name="back" d="M36.592 956.819h219.411c20.127 0 36.577-14.346 36.577-31.806v-386.881l680.951 419.425c4.289 1.558 8.956 2.418 13.857 2.418 20.268 0 36.577-14.223 36.577-31.806v-960.337c0-17.543-16.308-31.806-36.577-31.806-4.902 0-9.568 0.902-13.857 2.459l-680.951 419.383v-386.881c0-17.46-16.45-31.806-36.577-31.806h-219.411c-20.080 0-36.577 14.346-36.577 31.806v954.024c0 17.46 16.497 31.806 36.577 31.806z" />
<glyph unicode="&#xe988;" glyph-name="basket" d="M693.231 899.459c-19.562 29.435-59.371 37.371-88.746 17.749-29.436-19.562-37.372-59.37-17.749-88.744l125.745-188.483h-400.974l125.621 188.483c19.625 29.373 11.687 69.182-17.749 88.744-29.436 19.624-69.184 11.686-88.809-17.749l-172.808-259.486h-157.743v-127.991h63.997v-367.974c0-97.181 78.81-175.987 175.992-175.987h543.976c97.183 0 175.992 78.808 175.992 175.987v367.974h63.997v127.991h-157.743l-172.995 259.486zM319.999 511.982v-143.99h-127.994v143.99h127.994zM447.994 511.982h127.994v-143.99h-127.994v143.99zM240.003 96.012c-26.498 0-47.998 21.499-47.998 47.997v95.993h127.994v-143.99h-79.997zM447.994 96.012v143.99h127.994v-143.99h-127.994zM831.977 144.008c0-26.497-21.5-47.997-47.998-47.997h-79.997v143.99h127.994v-95.993zM703.983 367.992v143.99h127.994v-143.99h-127.994z" />
<glyph unicode="&#xe989;" glyph-name="bell" d="M632.496 49.811c0-62.872-53.917-113.793-120.49-113.793s-120.49 50.921-120.49 113.793v0zM511.987 959.981c198.783 0 361.427-153.605 361.427-341.34v0-312.855l150.572-199.1h-1023.962l150.572 199.1v312.855c0 187.735 162.644 341.34 361.39 341.34z" />
<glyph unicode="&#xe98a;" glyph-name="bin" d="M860.394 703.957v-753.74c0-14.089-11.196-14.187-24.893-14.187v0h-647.077c-13.666 0-24.893 0.099-24.893 14.187v0 753.74h696.861zM462.21 550.404h-49.785v-409.583h49.785v409.583zM611.533 550.404h-49.785v-409.583h49.785v409.583zM621.839 959.971l99.537-102.413h163.918c13.697 0 24.893-22.931 24.893-37.019v0-65.361h-796.399v65.361c0 14.089 11.196 37.019 24.893 37.019v0h163.886l99.537 102.413h219.734zM601.214 908.765h-178.482l-49.785-51.206h278.051l-49.785 51.206z" />
<glyph unicode="&#xe98b;" glyph-name="calendar" d="M729.607 903.090c25.753-0.247 46.721-19.263 48.873-43.343l0.179-4.571-0.766-71.487 146.999-0.034c54.727 0 99.093-42.483 99.093-94.889v-600.966c0-52.406-44.365-94.889-99.093-94.889h-825.772c-54.727 0-99.093 42.483-99.093 94.889v600.966c0 52.406 44.365 94.889 99.093 94.889l150.298 0.034 0.753 72.428c0.271 26.202 22.672 47.231 50.035 46.974 25.753-0.247 46.721-19.263 48.873-43.343l0.179-4.571-0.743-71.487h330.283l0.775 72.428c0.271 26.202 22.672 47.231 50.035 46.974zM924.888 426.497h-825.822l0.053-338.699h825.772l-0.004 338.699zM248.394 688.8l-149.273-0.037-0.053-167.381h825.822l0.004 167.381-147.965 0.037-0.676-66.311c-0.271-26.202-22.672-47.231-50.035-46.974-25.753 0.247-46.721 19.263-48.873 43.343l-0.179 4.571 0.668 65.371h-330.339l-0.641-66.311c-0.271-26.202-22.672-47.231-50.035-46.974-25.753 0.247-46.721 19.263-48.873 43.343l-0.179 4.571 0.633 65.371z" />
<glyph unicode="&#xe98c;" glyph-name="camera" d="M665.586 852.201l102.418-101.039h51.209v25.235c0 13.904 11.516 25.268 25.571 25.268v0h51.209c14.056 0 25.605-11.364 25.605-25.268v0-25.235h76.78c14.089 0 25.605-11.396 25.605-25.268v0-656.833c0-13.904-11.516-25.268-25.605-25.268v0h-972.773c-14.089 0-25.605 11.364-25.605 25.268v0 656.833c0 13.871 11.516 25.268 25.605 25.268v0h230.408l102.385 101.039h307.188zM511.992 650.123c-141.418 0-255.979-113.086-255.979-252.646s114.561-252.646 255.979-252.646c141.418 0 256.012 113.086 256.012 252.646s-114.593 252.646-256.012 252.646zM511.992 549.055c84.831 0 153.594-67.826 153.594-151.574 0-83.716-68.763-151.607-153.594-151.607s-153.594 67.891-153.594 151.607c0 83.749 68.763 151.574 153.594 151.574z" />
<glyph unicode="&#xe98d;" glyph-name="chevron-down" d="M512.001 345.597l409.592 409.592 102.398-102.398-511.99-511.99-511.99 511.99 102.398 102.398z" />
<glyph unicode="&#xe98e;" glyph-name="chevron-left" d="M409.602 447.997l409.594-409.594-102.399-102.399-511.992 511.992 511.992 511.992 102.399-102.399z" />
<glyph unicode="&#xe98f;" glyph-name="chevron-right" d="M614.4 447.997l-409.594-409.594 102.399-102.399 511.992 511.992-511.992 511.992-102.399-102.399z" />
<glyph unicode="&#xe990;" glyph-name="chevron-up" d="M511.995 550.397l409.588-409.588 102.397 102.397-511.985 511.985-511.985-511.985 102.397-102.397z" />
<glyph unicode="&#xe991;" glyph-name="clock" d="M511.993 959.977c282.33 0 511.977-229.676 511.977-511.996s-229.647-511.959-511.977-511.959c-282.33 0-511.977 229.64-511.977 511.959s229.647 511.996 511.977 511.996zM511.993 846.184c-219.529 0-398.217-178.608-398.217-398.202 0-219.521 178.688-398.202 398.217-398.202 219.565 0 398.217 178.681 398.217 398.202 0 219.594-178.651 398.202-398.217 398.202zM568.884 732.413v-227.55h113.797v-113.757h-227.594v341.305h113.797z" />
<glyph unicode="&#xe992;" glyph-name="cloud" d="M844.684 496.311c0 0.581 0.099 1.129 0.099 1.709 0 165.574-137.787 300.284-307.184 300.284-133.597 0-247.199-83.916-289.432-200.534-137.491-3.902-248.156-114.36-248.156-249.877 0-137.968 115.020-250.2 256.372-250.2h562.797c112.909 0 204.8 89.785 204.8 200.147 0 101.944-78.363 186.118-179.295 198.47z" />
<glyph unicode="&#xe993;" glyph-name="cog" d="M512.011 305.775c-78.563 0-142.206 63.753-142.206 142.206 0 78.563 63.643 142.243 142.206 142.243 78.454 0 142.206-63.68 142.206-142.243 0-78.454-63.753-142.206-142.206-142.206v0zM1023.976 362.672v170.655l-126.809 14.078c-9.385 36.515-23.793 70.975-42.489 102.687l79.663 99.571-120.687 120.687-99.534-79.663c-31.748 18.733-66.172 33.068-102.723 42.526l-14.041 126.772h-170.692l-14.078-126.772c-36.588-9.458-71.012-23.793-102.687-42.526l-99.607 79.663-120.723-120.687 79.736-99.571c-18.733-31.675-33.068-66.172-42.526-102.687l-126.772-14.078v-170.655l126.772-14.078c9.458-36.588 23.793-71.012 42.526-102.687l-79.736-99.607 120.723-120.687 99.607 79.7c31.675-18.733 66.099-33.104 102.687-42.489l14.078-126.809h170.692l14.041 126.809c36.551 9.385 70.975 23.756 102.65 42.489l99.607-79.7 120.687 120.687-79.663 99.607c18.77 31.675 33.104 66.099 42.489 102.687l126.809 14.078z" />
<glyph unicode="&#xe994;" glyph-name="comment" d="M682.664 391.106c-31.418 0-56.896 25.478-56.896 56.894s25.479 56.894 56.896 56.894c31.418 0 56.896-25.478 56.896-56.894s-25.479-56.894-56.896-56.894zM512.012 391.106c-31.418 0-56.896 25.478-56.896 56.894s25.479 56.894 56.896 56.894c31.418 0 56.86-25.478 56.86-56.894s-25.443-56.894-56.86-56.894zM341.321 391.106c-31.381 0-56.86 25.478-56.86 56.894s25.479 56.894 56.86 56.894c31.418 0 56.896-25.478 56.896-56.894s-25.479-56.894-56.896-56.894zM512.012 959.977c-282.796 0-511.996-229.227-511.996-511.977 0-141.393 57.3-269.369 149.94-362.042l-149.94-149.934h511.996c282.796 0 511.959 229.191 511.959 511.977 0 282.749-229.163 511.977-511.959 511.977z" />
<glyph unicode="&#xe995;" glyph-name="crop" d="M284.472 220.468v455.099h455.115v-455.099h-455.115zM853.348 220.468v483.51c0 47.072-38.311 85.345-85.348 85.345h-483.527v170.653h-113.797v-170.653h-170.659v-113.757h170.659v-483.548c0-47.072 38.275-85.345 85.348-85.345h483.527v-170.653h113.797v170.653h170.622v113.793h-170.622z" />
<glyph unicode="&#xe996;" glyph-name="document" d="M810.622 71.404c0-18.147-14.435-32.994-32.077-32.994h-533.146c-17.643 0-32.077 14.848-32.077 32.994v753.191c0 18.113 14.435 32.994 32.077 32.994h284.263c17.674 0 32.077-14.88 32.077-32.994v-190.013c0-18.147 14.435-32.994 32.077-32.994h184.73c17.643 0 32.077-14.848 32.077-32.994v-497.189zM634.201 936.644c-12.478 12.835-28.26 23.326-35.124 23.326h-428.319c-17.643 0-37.69-2.573-44.523-5.774-6.864-3.168-12.445-34.677-12.445-52.823v-906.747c0-18.147 2.502-38.768 5.613-45.796 3.047-7.061 33.713-12.802 51.355-12.802h682.463c17.61 0 37.658 2.606 44.49 5.741 6.864 3.168 12.478 34.71 12.478 52.857v625.174c0 18.147-10.232 43.486-22.71 56.321l-253.278 260.522z" />
<glyph unicode="&#xe997;" glyph-name="drawer" d="M810.65 857.56v-665.537h-193.687c0-51.205-47.283-102.378-102.265-102.378-54.949 0-102.265 51.173-102.265 102.378h-199.108v665.537h597.324zM910.188 934.368c0 14.121-11.131 25.603-24.893 25.603h-746.614c-13.762 0-24.893-11.482-24.893-25.603v-972.736c0-14.121 11.131-25.603 24.893-25.603h746.614c13.762 0 24.893 11.482 24.893 25.603v972.736z" />
<glyph unicode="&#xe998;" glyph-name="education" d="M537.596 852.201l486.387-303.145-486.387-303.145-435.211 271.235v-303.536c15.277-8.759 25.605-24.845 25.605-43.502 0-17.648-9.206-33.147-23.13-42.167v0l48.734-84.139h-153.594l48.734 84.139c-13.924 9.020-23.163 24.519-23.163 42.167 0 18.657 10.361 34.743 25.605 43.502v0 335.446l486.42 303.145zM204.807 393.598l332.793-207.447 332.793 207.415v-142.325l-332.793-207.447-332.793 207.447v142.358z" />
<glyph unicode="&#xe999;" glyph-name="email" d="M1023.98 579.737v-428.867c0-12.579-11.548-22.86-25.604-22.86v0h-972.794c-14.056 0-25.571 10.281-25.571 22.86v0 428.867l511.984-228.574 511.984 228.574zM998.375 767.991c14.056 0 25.604-10.311 25.604-22.86v0-63.19l-511.984-228.544-511.984 228.544v63.19c0 12.55 11.515 22.86 25.571 22.86v0z" />
<glyph unicode="&#xe99a;" glyph-name="eye-closed" d="M138.612 903.104l819.165-836.272-72.391-73.937-178.799 182.534c-62.394-26.576-127.492-41.027-194.571-41.027-193.779 0-371.655 117.557-512.015 313.598 66.584 92.934 141.647 167.881 222.749 221.371v0l-156.528 159.797 72.391 73.937zM335.756 554.004c-18.015-31.057-28.541-67.233-28.541-106.004 0-115.469 91.66-209.076 204.8-209.076 37.944 0 73.315 10.813 103.769 29.238v0l-77.637 79.258c-8.381-2.324-17.058-3.975-26.132-3.975-56.553 0-102.416 46.922-102.416 104.555 0 9.297 1.584 18.19 3.795 26.745v0zM512.002 761.598c193.779 0 371.688-117.557 511.982-313.598-48.997-68.446-102.647-127.056-159.861-174.719v0l-148.642 151.746c0.824 7.545 1.319 15.225 1.319 22.972 0 115.469-91.693 209.076-204.8 209.076-7.588 0-15.112-0.505-22.503-1.348v0l-90.307 92.226c36.855 8.859 74.502 13.642 112.809 13.642z" />
<glyph unicode="&#xe99b;" glyph-name="eye" d="M511.979 760.884c193.774 0 371.678-117.282 512.002-312.863-140.324-195.582-318.227-312.897-512.002-312.897-193.741 0-371.612 117.315-511.968 312.897 140.357 195.582 318.227 312.863 511.968 312.863zM511.979 656.608c-113.103 0-204.794-93.389-204.794-208.587s91.691-208.587 204.794-208.587c113.103 0 204.794 93.389 204.794 208.587s-91.691 208.587-204.794 208.587zM511.979 552.318c56.486 0 102.414-46.711 102.414-104.31 0-57.498-45.928-104.276-102.414-104.276-56.552 0-102.38 46.778-102.38 104.276 0 57.599 45.829 104.31 102.38 104.31z" />
<glyph unicode="&#xe99c;" glyph-name="filters" d="M398.229 277.334c74.309 0 137.326-47.512 160.715-113.795v0h436.578c15.617 0 28.448-12.794 28.448-28.412v0-56.898c0-15.654-12.831-28.448-28.448-28.448v0h-436.578c-23.389-66.246-86.406-113.758-160.715-113.758-74.345 0-137.326 47.512-160.788 113.758v0h-208.959c-15.653 0-28.448 12.794-28.448 28.448v0 56.898c0 15.617 12.794 28.412 28.448 28.412v0h208.959c23.462 66.282 86.443 113.795 160.788 113.795zM398.229 191.987c-47.144 0-85.344-38.2-85.344-85.31 0-47.145 38.199-85.346 85.344-85.346 47.107 0 85.344 38.2 85.344 85.346 0 47.109-38.236 85.31-85.344 85.31zM739.53 618.626c74.345 0 137.326-47.476 160.752-113.758v0h95.241c15.617 0 28.448-12.794 28.448-28.412v0-56.898c0-15.654-12.831-28.448-28.448-28.448v0h-95.241c-23.425-66.246-86.406-113.795-160.752-113.795-74.309 0-137.326 47.549-160.752 113.795v0h-550.295c-15.653 0-28.448 12.794-28.448 28.448v0 56.898c0 15.617 12.794 28.412 28.448 28.412v0h550.295c23.425 66.282 86.443 113.758 160.752 113.758zM739.53 533.317c-47.144 0-85.344-38.2-85.344-85.31 0-47.145 38.199-85.346 85.344-85.346 47.107 0 85.344 38.2 85.344 85.346 0 47.109-38.236 85.31-85.344 85.31zM284.457 959.977c74.309 0 137.326-47.512 160.752-113.795v0h550.295c15.653 0 28.448-12.794 28.448-28.412v0-56.898c0-15.654-12.794-28.448-28.448-28.448v0h-550.295c-23.425-66.282-86.443-113.795-160.752-113.795-74.345 0-137.326 47.512-160.752 113.795v0h-95.241c-15.617 0-28.448 12.794-28.448 28.448v0 56.898c0 15.617 12.831 28.412 28.448 28.412v0h95.241c23.425 66.282 86.406 113.795 160.752 113.795zM284.457 874.631c-47.144 0-85.344-38.2-85.344-85.31 0-47.145 38.199-85.346 85.344-85.346 47.107 0 85.344 38.2 85.344 85.346 0 47.109-38.236 85.31-85.344 85.31z" />
<glyph unicode="&#xe99d;" glyph-name="fire" d="M932.573 371.746c-2.412 47.136-12.499 92.234-29.516 133.955-6.624 12.336-12.568 25.072-17.9 38.144-19.564 47.872-30.603 99.99-30.603 154.715 0 32.996 4.347 64.888 11.719 95.644 1.46 6.152 3.057 12.302 4.789 18.387-6.113-4.847-11.956-9.962-17.594-15.344-35.63-33.664-61.478-77.057-73.468-125.899-2.412-9.661-4.314-19.523-5.536-29.62-0.34-4.513-0.646-9.026-1.189-13.506-13.145-108.548-88.243-198.175-189.427-234.112 53.835 66.459 86.24 150.57 86.24 242.203 0 36.305-5.435 71.274-14.877 104.603-3.906 13.841-8.458 27.346-13.824 40.518-19.904 48.608-49.285 92.468-86.205 129.041-13.077 12.905-27.308 24.672-42.084 35.737-6.284 4.68-12.499 9.46-19.089 13.773 1.358-4.279 2.275-8.725 3.464-13.038 5.57-19.824 9.816-40.183 12.125-61.177 1.495-13.807 2.378-27.781 2.378-41.955 0-26.811-2.786-52.953-8.016-78.227-9.273-44.83-26.765-86.618-50.269-124.36-4.823-7.756-9.816-15.412-15.183-22.766-29.245-40.451-66.097-75.051-108.622-101.929-1.495 13.807-2.378 27.781-2.378 41.955 0 52.887-10.801 103.266-30.23 149.2-15.319 36.205-35.969 69.702-61.070 99.388-5.095 6.051-10.597 11.701-16.032 17.383 1.223-12.403 1.937-24.973 1.937-37.709 0-2.307-0.306-4.58-0.374-6.886-0.815-45.799-9.782-89.526-25.339-130.144-8.219-21.429-18.206-41.888-29.957-61.278-5.095-8.391-10.258-16.648-15.93-24.604-20.38-33.396-35.969-69.836-46.193-108.482-8.797-33.396-13.96-68.231-13.96-104.369 0-20.794 2.038-41.085 5.061-61.044 3.94-26.377 10.359-51.917 19.123-76.421 57.673-161.534 213.611-277.505 397.433-277.505 99.452 0 190.718 34.098 262.827 90.83 61.851 48.608 109.268 113.964 135.557 189.149 14.809 42.39 23.267 87.654 23.267 134.992 0 7.021-0.714 13.841-1.052 20.76z" />
<glyph unicode="&#xe99e;" glyph-name="flag" d="M995.557 789.325h-341.354v142.205c0 15.654-12.795 28.448-28.412 28.448h-597.325c-15.654 0-28.449-12.794-28.449-28.448v-967.058c0-15.654 12.795-28.448 28.449-28.448h56.861c15.654 0 28.449 12.794 28.449 28.448v426.651h341.318v-142.241c0-15.617 12.831-28.448 28.449-28.448h512.014c15.618 0 28.412 12.831 28.412 28.448v511.996c0 15.617-12.795 28.448-28.412 28.448z" />
<glyph unicode="&#xe99f;" glyph-name="folder" d="M0 74.677c0-13.666 11.548-24.892 25.604-24.892h972.775c14.056 0 25.604 11.227 25.604 24.892v597.323c0 13.666-11.548 24.86-25.604 24.86h-537.578l-153.589 149.355h-281.608c-14.056 0-25.604-11.195-25.604-24.892v-746.646z" />
<glyph unicode="&#xe9a0;" glyph-name="forward" d="M924.019 956.83h-190.16c-17.444 0-31.7-14.346-31.7-31.807v-386.89l-590.172 419.434c-3.717 1.557-7.762 2.418-12.010 2.418-17.525 0-31.7-14.223-31.7-31.807v-960.358c0-17.543 14.176-31.807 31.7-31.807 4.248 0 8.293 0.901 12.010 2.46l590.172 419.393v-386.89c0-17.461 14.257-31.807 31.7-31.807h190.16c17.402 0 31.7 14.346 31.7 31.807v954.046c0 17.461-14.298 31.807-31.7 31.807z" />
<glyph unicode="&#xe9a1;" glyph-name="game" d="M796.434 306.815c-31.456 0-56.898 25.293-56.898 56.481 0 31.225 25.479 56.481 56.898 56.481s56.898-25.256 56.898-56.481c0-31.188-25.479-56.445-56.898-56.481zM682.638 137.409c-31.382 0-56.861 25.256-56.861 56.481 0 31.188 25.479 56.445 56.861 56.445 31.456 0 56.898-25.256 56.898-56.445-0.037-31.225-25.443-56.481-56.898-56.481zM284.46 137.409c-78.565 0-142.245 63.25-142.245 141.167 0 77.952 63.681 141.202 142.245 141.202 78.529 0 142.208-63.25 142.208-141.202 0-77.916-63.681-141.167-142.208-141.167zM739.536 560.944h-199.107v28.24c0 46.692-38.274 84.685-85.347 84.685h-113.76c-15.654 0-28.413 12.701-28.413 28.24 0 15.576 12.758 28.24 28.413 28.24h398.215c47.037 0 85.347 37.994 85.347 84.721 0 46.692-38.311 84.685-85.347 84.685h-227.556v-56.445h227.556c15.691 0 28.45-12.701 28.45-28.24 0-15.576-12.758-28.24-28.45-28.24h-398.215c-47.037 0-85.311-37.994-85.311-84.721 0-46.692 38.274-84.685 85.311-84.685h113.76c15.691 0 28.45-12.701 28.45-28.24v-28.24h-199.071c-157.129 0-284.454-126.427-284.454-282.369s127.324-282.333 284.454-282.333h455.075c157.093 0 284.454 126.391 284.454 282.333s-127.361 282.369-284.454 282.369z" />
<glyph unicode="&#xe9a2;" glyph-name="gauge" d="M511.995 852.202c136.766 0 265.348-52.587 362.058-148.057 96.71-95.438 149.931-222.395 149.931-357.427 0-110.839-36.394-215.915-102.714-302.919v0l-73.184 72.189c47.612 67.24 73.513 146.95 73.513 230.73 0 108.006-42.597 209.566-119.971 285.955-77.341 76.356-180.187 118.426-289.633 118.426-109.38 0-212.292-42.070-289.633-118.426-77.341-76.389-119.938-177.948-119.938-285.955 0-83.781 25.868-163.491 73.448-230.763v0l-73.118-72.156c-66.354 86.972-102.747 192.080-102.747 302.919 0 135.032 53.254 261.989 149.964 357.427 96.677 95.47 225.259 148.057 362.025 148.057zM652.812 461.285c0 0-53.122-242.322-74.306-278.563s-68.169-48.647-104.892-27.71c-36.723 20.905-49.295 67.272-28.112 103.513 21.216 36.241 207.31 202.76 207.31 202.76zM204.818 397.465c28.277 0 51.176-22.63 51.176-50.535 0-27.872-22.899-50.535-51.176-50.535s-51.209 22.663-51.209 50.535c0 27.905 22.932 50.535 51.209 50.535zM819.221 397.475c28.244 0 51.176-22.63 51.176-50.535 0-27.872-22.932-50.535-51.176-50.535-28.31 0-51.209 22.663-51.209 50.535 0 27.905 22.899 50.535 51.209 50.535zM258.565 597.017c19.995 19.733 52.43 19.733 72.425 0 19.995-19.7 19.963-51.708 0-71.44-19.995-19.733-52.43-19.733-72.425 0-19.963 19.733-19.963 51.74 0 71.44zM693.044 597.031c19.995 19.733 52.396 19.733 72.392 0 19.963-19.7 19.995-51.708 0-71.44s-52.43-19.733-72.392 0c-19.995 19.733-19.995 51.708 0 71.44zM511.998 700.622c28.244 0 51.209-22.63 51.209-50.535s-22.965-50.502-51.209-50.502c-28.277 0-51.209 22.597-51.209 50.502s22.932 50.535 51.209 50.535z" />
<glyph unicode="&#xe9a3;" glyph-name="gift" d="M654.614 719.041l109.916 111.408-83.174 84.361-109.916-111.465v156.64h-118.885v-153.589l-106.963 108.416-83.174-84.361 106.963-111.408h-154.484v-120.444h594.203v120.444zM96.008 297.402h356.544v240.945h-356.544zM96.008-63.985h356.544v240.945h-356.544zM571.44 297.402h356.544v240.945h-356.544zM571.44-63.985h356.544v240.945h-356.544z" />
<glyph unicode="&#xe9a4;" glyph-name="grid-2x2" d="M418.452 391.121c20.163 0 36.66-16.497 36.66-36.66v0-381.777c0-20.163-16.497-36.66-36.66-36.66v0h-381.776c-20.163 0-36.66 16.497-36.66 36.66v0 381.777c0 20.163 16.497 36.66 36.66 36.66v0zM987.31 391.121c20.163 0 36.66-16.497 36.66-36.66v0-381.777c0-20.163-16.497-36.66-36.66-36.66v0h-381.776c-20.163 0-36.66 16.497-36.66 36.66v0 381.777c0 20.163 16.497 36.66 36.66 36.66v0zM418.452 959.977c20.163 0 36.66-16.497 36.66-36.66v0-381.777c0-20.163-16.497-36.66-36.66-36.66v0h-381.776c-20.163 0-36.66 16.497-36.66 36.66v0 381.777c0 20.163 16.497 36.66 36.66 36.66v0zM987.31 959.977c20.163 0 36.66-16.497 36.66-36.66v0-381.777c0-20.163-16.497-36.66-36.66-36.66v0h-381.776c-20.163 0-36.66 16.497-36.66 36.66v0 381.777c0 20.163 16.497 36.66 36.66 36.66v0z" />
<glyph unicode="&#xe9a5;" glyph-name="grid-3x3" d="M199.115 163.571c15.617 0 28.448-12.794 28.448-28.448v0-170.652c0-15.654-12.831-28.448-28.448-28.448v0h-170.652c-15.654 0-28.448 12.794-28.448 28.448v0 170.652c0 15.654 12.794 28.448 28.448 28.448v0zM995.522 163.571c15.617 0 28.448-12.794 28.448-28.448v0-170.652c0-15.654-12.831-28.448-28.448-28.448v0h-170.652c-15.654 0-28.448 12.794-28.448 28.448v0 170.652c0 15.654 12.794 28.448 28.448 28.448v0zM597.312 163.571c15.654 0 28.448-12.794 28.448-28.448v0-170.652c0-15.654-12.794-28.448-28.448-28.448v0h-170.652c-15.617 0-28.448 12.794-28.448 28.448v0 170.652c0 15.654 12.831 28.448 28.448 28.448v0zM199.115 561.763c15.617 0 28.448-12.794 28.448-28.448v0-170.652c0-15.617-12.831-28.448-28.448-28.448v0h-170.652c-15.654 0-28.448 12.831-28.448 28.448v0 170.652c0 15.654 12.794 28.448 28.448 28.448v0zM995.522 561.763c15.617 0 28.448-12.794 28.448-28.448v0-170.652c0-15.617-12.831-28.448-28.448-28.448v0h-170.652c-15.654 0-28.448 12.831-28.448 28.448v0 170.652c0 15.654 12.794 28.448 28.448 28.448v0zM597.312 561.763c15.654 0 28.448-12.794 28.448-28.448v0-170.652c0-15.617-12.794-28.448-28.448-28.448v0h-170.652c-15.617 0-28.448 12.831-28.448 28.448v0 170.652c0 15.654 12.831 28.448 28.448 28.448v0zM199.115 959.974c15.617 0 28.448-12.794 28.448-28.448v0-170.652c0-15.654-12.831-28.448-28.448-28.448v0h-170.652c-15.654 0-28.448 12.794-28.448 28.448v0 170.652c0 15.654 12.794 28.448 28.448 28.448v0zM995.515 959.977c15.654 0 28.448-12.831 28.448-28.448v0-170.652c0-15.654-12.794-28.448-28.448-28.448v0h-170.652c-15.654 0-28.448 12.794-28.448 28.448v0 170.652c0 15.617 12.794 28.448 28.448 28.448v0zM597.312 959.974c15.654 0 28.448-12.794 28.448-28.448v0-170.652c0-15.654-12.794-28.448-28.448-28.448v0h-170.652c-15.617 0-28.448 12.794-28.448 28.448v0 170.652c0 15.654 12.831 28.448 28.448 28.448v0z" />
<glyph unicode="&#xe9a6;" glyph-name="headphones" horiz-adv-x="1008" d="M244.302 287.392c58.9 0 107.070-48.203 107.070-107.103v0-107.068c0-58.9-48.169-107.103-107.070-107.103v0h-26.776c-14.699 0-26.776 12.077-26.776 26.776v0 267.723c0 14.699 12.077 26.776 26.776 26.776v0zM806.481 287.392c14.734 0 26.776-12.077 26.776-26.776v-267.723c0-14.699-12.042-26.776-26.776-26.776h-26.776c-58.9 0-107.070 48.203-107.070 107.103v107.068c0 58.9 48.169 107.103 107.070 107.103h26.776zM512.011 929.882c265.69 0 481.865-216.173 481.865-481.86v0-455.119c0-14.734-12.042-26.776-26.776-26.776v0h-53.518c-14.734 0-26.776 12.042-26.776 26.776v0 455.119c0 206.649-168.144 374.757-374.795 374.757-206.686 0-374.795-168.108-374.795-374.757v0-455.119c0-14.734-12.042-26.776-26.776-26.776v0h-53.552c-14.699 0-26.776 12.042-26.776 26.776v0 455.119c0 265.687 216.175 481.86 481.9 481.86z" />
<glyph unicode="&#xe9a7;" glyph-name="heart" d="M940.672 419.072c111.081 109.060 111.081 286.075 0 395.171-111.008 109.024-291.193 108.987-402.199-0.072-9.788-9.563-18.404-19.885-26.432-30.459-8.065 10.61-16.717 20.895-26.505 30.531-111.008 109.024-291.193 108.987-402.199-0.072-111.117-109.132-111.081-286.039-0.037-395.063l426.688-419.098 430.684 419.062z" />
<glyph unicode="&#xe9a8;" glyph-name="history" d="M511.975 959.977c141.179 0 269.196-57.412 361.872-150.129 92.714-92.68 150.123-220.738 150.123-361.849 0-282.33-229.64-511.977-511.996-511.977-139.089 0-267.912 56.679-361.689 150.275v0l80.359 80.362c72.953-72.773 173.146-116.877 281.33-116.877 219.594 0 398.239 178.651 398.239 398.217 0 109.801-44.689 209.337-116.8 281.45-72.111 72.077-171.642 116.767-281.439 116.767-121.491 0-234.002-55.359-308.459-146.609v0l137.843-137.847h-341.343v341.318l122.591-122.559c95.72 112.038 237.118 179.458 389.368 179.458zM511.985 732.445v-227.557h113.793v-113.797h-227.55v341.354h113.757z" />
<glyph unicode="&#xe9a9;" glyph-name="home-narrow" d="M511.99 959.975l-511.975-511.975h127.973v-511.975h255.987v192.021c0 70.688 57.326 127.973 128.014 127.973s128.014-57.284 128.014-127.973v-192.021h255.946v511.975h128.014l-511.975 511.975z" />
<glyph unicode="&#xe9aa;" glyph-name="home-wide" d="M921.568 448v149.322h-153.589l-256.004 248.892-511.975-497.786h102.382v-298.646h307.211v248.892h204.763v-248.892h307.211v298.646h102.415z" />
<glyph unicode="&#xe9ab;" glyph-name="image" d="M947.169 846.21c42.366 0 76.814-33.489 76.814-74.677v0-647.076c0-41.188-34.447-74.677-76.814-74.677v0h-870.389c-42.333 0-76.78 33.489-76.78 74.677v0 647.076c0 41.188 34.447 74.677 76.78 74.677v0zM921.565 746.64h-819.179v-597.292l237.898 231.282c9.931 9.656 26.265 9.656 36.196 0v0l84.304-81.959 460.782 447.968zM297.22 632.866c44.789 0 81.081-35.779 81.081-79.977s-36.291-80.011-81.081-80.011c-44.789 0-81.081 35.813-81.081 80.011s36.291 79.977 81.081 79.977z" />
<glyph unicode="&#xe9ac;" glyph-name="leaf" d="M253.427 164.604c173.036-37.101 343.652 73.358 380.715 246.215 30.354 141.658 169.81 231.88 311.464 201.452 28.412-6.086 54.66-16.754 78.379-30.795-8.395 28.779-19.466 56.568-32.481 83.33-8.542 17.451-17.927 34.462-28.302 50.885-72.733 114.896-189.569 201.745-333.058 232.504-272.421 58.51-540.297-106.463-614.461-371.155-2.932-10.521-6.159-20.896-8.505-31.712-23.609-110.239 12.794-219.379 87.031-293.764-20.786-40.877-38.53-82.817-52.497-124.28-10.632-32.481-19.137-64.633-25.956-95.465-6.268-31.199-12.831-66.833-15.727-95.795h129.043c-0.917 22.4 0.11 51.729 1.723 78.895 2.236 27.495 5.719 56.422 11.072 86.227 11.255 59.427 29.768 122.301 56.97 182.168 26.762 59.978 61.443 117.058 99.899 166.514 38.199 49.676 80.103 91.689 118.815 124.611 5.499 4.729 21.667 17.231 17.194 12.061-200.274-232.87-181.321-421.894-181.321-421.894z" />
<glyph unicode="&#xe9ad;" glyph-name="link-away" d="M1023.97 561.775l-455.099 398.202v-232.902c-568.855-136.632-568.855-791.052-568.855-791.052s198.002 460.011 568.855 460.011v-232.461l455.099 398.202z" />
<glyph unicode="&#xe9ae;" glyph-name="link" d="M309.138 570.2l81.155-81.184-263.727-263.901 162.273-162.404 263.69 263.901 81.155-81.184-283.988-284.215c-16.231-16.244-37.823-25.198-60.857-25.198-22.997 0-44.626 8.954-60.857 25.198v0l-202.833 202.996c-16.231 16.244-25.141 37.891-25.141 60.906s8.911 44.662 25.141 60.906v0l283.988 284.178zM643.541 661.264l81.118-81.184-344.253-344.529-81.118 81.22 344.253 344.492zM674.251 935.618c32.463 32.488 89.252 32.488 121.714 0v0l202.833-202.996c16.231-16.244 25.178-37.854 25.178-60.906s-8.948-44.662-25.178-60.906v0l-284.025-284.178-81.081 81.184 263.69 263.901-162.273 162.404-263.69-263.939-81.118 81.22z" />
<glyph unicode="&#xe9af;" glyph-name="lock" d="M362.649 550.395v153.583c0 84.693 66.979 153.583 149.323 153.583s149.355-68.89 149.355-153.583v-153.583h-298.678zM511.973 217.625c-41.22 0-74.646 34.379-74.646 76.775 0 42.429 33.425 76.808 74.646 76.808 41.252 0 74.677-34.379 74.677-76.808 0-42.396-33.425-76.775-74.677-76.775v0zM885.296 550.395h-124.43v153.583c0 141.145-111.663 255.994-248.893 255.994s-248.893-114.85-248.893-255.994v-153.583h-124.399c-13.697 0-24.893-11.547-24.893-25.603v-179.186c0-226.201 178.257-409.577 398.184-409.577s398.215 183.375 398.215 409.577v179.186c0 14.055-11.196 25.603-24.893 25.603v0z" />
<glyph unicode="&#xe9b0;" glyph-name="microphone-mute" d="M150.87 893.789l792.261-819.153-70.010-72.423-153.966 159.198c-45.312-35.139-99.080-58.961-157.635-67.705v0-55.299l99.017-102.382h-297.081l99.017 102.382v55.299c-167.687 24.977-297.081 174.112-297.081 354.294v0h99.049c0-141.151 111.047-256.003 247.558-256.003 50.386 0 97.198 15.772 136.319 42.629v0l-72.531 74.996c-19.37-9.634-40.94-15.211-63.788-15.211-81.689 0-148.541 69.124-148.541 153.589v0 81.199l-282.595 292.166 70.010 72.423zM858.608 448.005c0-52.032-11.009-101.359-30.378-146.001v0l-77.318 79.945c5.457 21.117 8.648 43.189 8.648 66.054v0zM511.999 959.973c81.689 0 148.541-69.090 148.541-153.589v0-330.967l-297.081 307.179v23.789c0 84.499 66.851 153.589 148.541 153.589z" />
<glyph unicode="&#xe9b1;" glyph-name="microphone-on" d="M255.986 448.005c0-141.154 114.854-256.010 256.005-256.010s256.005 114.857 256.005 256.010v0h102.382c0-180.187-133.794-329.325-307.179-354.303v0-55.301l102.382-102.384h-307.179l102.382 102.384v55.301c-173.354 24.978-307.179 174.115-307.179 354.303v0zM511.999 959.982c84.466 0 153.59-69.092 153.59-153.593v0-358.394c0-84.467-69.123-153.593-153.59-153.593s-153.59 69.125-153.59 153.593v0 358.394c0 84.501 69.123 153.593 153.59 153.593z" />
<glyph unicode="&#xe9b2;" glyph-name="more-horizontal" d="M255.999 448c0-70.391-57.576-127.999-128.020-127.999-70.403 0-127.979 57.608-127.979 127.999s57.576 127.999 127.979 127.999c70.444 0 128.020-57.608 128.020-127.999zM639.996 448c0-70.391-57.576-127.999-128.020-127.999-70.403 0-127.979 57.608-127.979 127.999s57.576 127.999 127.979 127.999c70.444 0 128.020-57.608 128.020-127.999zM1023.994 448c0-70.391-57.576-127.999-128.020-127.999-70.403 0-127.979 57.608-127.979 127.999s57.576 127.999 127.979 127.999c70.444 0 128.020-57.608 128.020-127.999z" />
<glyph unicode="&#xe9b3;" glyph-name="more-vertical" d="M511.988 192.008c70.39 0 127.997-57.574 127.997-128.017 0-70.401-57.607-127.975-127.997-127.975s-127.997 57.574-127.997 127.975c0 70.443 57.607 128.017 127.997 128.017zM511.988 575.997c70.39 0 127.997-57.574 127.997-128.017 0-70.401-57.607-127.975-127.997-127.975s-127.997 57.574-127.997 127.975c0 70.443 57.607 128.017 127.997 128.017zM511.988 959.985c70.39 0 127.997-57.574 127.997-128.017 0-70.401-57.607-127.975-127.997-127.975s-127.997 57.574-127.997 127.975c0 70.443 57.607 128.017 127.997 128.017z" />
<glyph unicode="&#xe9b4;" glyph-name="paintbrush" d="M178.975 414.591c90.374 95.238 236.897 95.238 327.234 0 90.412-95.16 90.412-249.504 0.037-344.703-137.053-144.409-342.818-171.94-506.23-82.788 28.074 6.559 54.844 20.972 76.691 43.987 37.694 39.706 51.936 94.65 43.099 146.019-0.447 2.357-1.156 4.634-1.678 6.952-18.605 80.040 1.492 168.051 60.846 230.535zM971.114 953.196c12.639 10.133 32.25 8.758 43.472-3.102v0l3.754-4.827c7.661-12.075 7.608-29.322-0.809-41.005v0l-353.631-490.094c-9.619-13.353-26.732-14.57-37.954-2.71v0l-122.736 129.249c-11.26 11.821-10.067 29.847 2.572 39.98v0z" />
<glyph unicode="&#xe9b5;" glyph-name="pause" d="M307.812 959.975c18.407 0 33.529-14.435 33.529-32.004v-959.956c0-17.57-15.123-32.004-33.529-32.004h-201.129c-18.449 0-33.529 14.435-33.529 32.004v959.956c0 17.57 15.080 32.004 33.529 32.004h201.129zM917.309 959.975c18.449 0 33.529-14.435 33.529-32.004v-959.956c0-17.57-15.080-32.004-33.529-32.004h-201.129c-18.407 0-33.529 14.435-33.529 32.004v959.956c0 17.57 15.123 32.004 33.529 32.004h201.129z" />
<glyph unicode="&#xe9b6;" glyph-name="pen" d="M1009.661 945.659c-19.1 19.1-50.373 19.1-69.473 0l-47.99-47.952-25.59 25.59c-11.072 11.072-29.182 11.072-40.254 0l-784.4-784.4c-11.035-11.035-11.035-29.146 0-40.218l30.429-30.392-72.369-72.332v-59.941h59.867l72.369 72.369 30.429-30.429c11.035-11.035 29.146-11.035 40.218 0l621.991 622.028v-67.273l-192.984-196.063 40.547-39.887 209.298 212.634v147.488l105.547 105.511c11.035 11.072 11.035 29.146 0 40.218l-25.626 25.626 47.99 47.952c19.1 19.137 19.1 50.373 0 69.473z" />
<glyph unicode="&#xe9b7;" glyph-name="phone" d="M958.019 278.282c-6.342 1.503-12.905 2.456-19.686 2.456-0.293 0-0.55-0.073-0.88-0.073-96.892 12.171-187.516 44.505-267.472 92.823l-123.948-126.697c-91.613 61.772-171.020 144.331-232.792 229.64v0l124.132 126.734c-48.354 79.956-80.579 172.009-92.787 268.902 0 0.33 0.147 1.283 0.147 1.577 0 6.782-0.99 13.711-2.493 20.053-8.909 37.723-42.599 66.281-83.108 66.281h-173.512c-46.559 0-84.318-37.246-85.418-83.585 0-0.66-0.184-1.357-0.184-2.053 0-4.986 0.624-9.788 1.43-14.517 17.891-186.563 85.309-357.877 188.727-501.291 64.522-89.414 143.085-167.904 232.499-232.352 143.561-103.491 314.911-170.763 500.924-188.689 4.802-0.844 9.715-1.466 14.737-1.466 0.697 0 1.393 0.184 2.126 0.22 46.302 1.137 83.512 38.823 83.512 85.382v173.512c0 40.473-28.191 74.237-65.952 83.145z" />
<glyph unicode="&#xe9b8;" glyph-name="pin" d="M511.987 422.414c-74.634 0-135.094 57.31-135.094 127.983s60.46 128.016 135.094 128.016c74.634 0 135.094-57.343 135.094-128.016s-60.46-127.983-135.094-127.983zM817.697 835.562c-168.84 165.893-442.579 165.893-611.384 0-168.875-165.893-168.875-434.924 0-600.784l305.674-298.759 305.71 298.759c168.84 165.86 168.84 434.892 0 600.784z" />
<glyph unicode="&#xe9b9;" glyph-name="play" d="M868.643 470.257l-3.358 2.418-675.702 484.896c-3.681 1.558-7.646 2.418-11.894 2.418-17.317 0-31.397-14.223-31.397-31.807v-960.365c0-17.584 14.079-31.807 31.397-31.807 4.248 0 8.213 0.902 11.894 2.418l679.060 487.314c5.542 5.738 9.063 13.567 9.063 22.257s-3.519 16.518-9.063 22.257z" />
</font>
</defs>
</svg>
